nginx CF-RAY: 357400c36e702282-LAX Planet Earth S02e02 - Mountains (2016), [BDrip 1080p - H264 - Ita Ac3 Eng Dts] BBC [Isohunt.to] torrent on hobet88.org
imdb
rating

9.8
Planet Earth II

Planet Earth II (2016)

Documentary

Full description

Planet Earth S02e02 - Mountains (2016), [BDrip 1080p - H264 - Ita Ac3 Eng Dts] BBC [Isohunt.to]

Size 6.125 GB   217 seeders     Added 2017-03-27 21:26:46

[align=center][URL=http://forum.tntvillage.scambioetico.org/index.php?act=allreleases&st=0&filter=&releaser=%25Sciencefun%25&sb=1&sd=0&cat=0][IMG]image[/IMG][/URL]
 
[b][SIZE=13][color=blue]Planet Earth II[/SIZE][/color][/b]


[IMG]image[/IMG]


[IMG]image[/IMG]

[b]Dopo il grande successo di pubblico e critica della prima serie del documentario di BBC, “Planet Earth II” è tornato quindi ad esplorare il Pianeta concentrando l’attenzione su isole, montagne, giungle, deserti, praterie e, per la prima volta, città.
“Planet Earth II” è stato interamente girato in full UHD+HDR visitando 40 diversi paesi, nel corso di 117 viaggi, per un totale di 2.089 giorni di riprese.

Solo per l’Isola di Zavodovski, in Antartide, si è reso necessario un anno di programmazione.
Un’altra troupe ha trascorso cinque mesi, nell’arco di due anni, accampata sul Delta dell’Okavango, in Botswana.

“Planet Earth II” è riuscito a catturare e, cosa non meno importante, raccontare il mondo naturale con una narrazione raffinata ed una qualità pari a quella cinematografica.
Eccezionali, infatti, le risorse tecnologiche impiegate dal Natural History Unit di BBC: tra queste, stabilizzatori di immagine, droni e telecamere a sensore.

La tecnica cinematografica d’avanguardia adottata, ha reso visibile l’invisibile e impensabili prima d’ora le sequenze dedicate agli animali, quest’ultime proposte con un dettaglio senza precedenti. Non a caso, la voce narrante della serie originale – Sir David Attenborough – ha affermato: “Dieci anni fa queste riprese non si potevano fare!”.
[/b]

[/align]

[CITA=Sciencefun] T R A I L E R
[youtube=c8aFcHFu8QM]
[/CITA]


[CITA=Sciencefun] P R O M O
[youtube=msnekMHJQG8]
[/CITA]

[align=center]
[IMG]image[/IMG]

[b]

Genre	Nature documentary
Presented by	David Attenborough
Composer(s)	
Hans Zimmer
Jasha Klebe
Jacob Shea
Country of origin	United Kingdom
Original language(s)	English
[/b]

[IMG]image[/IMG]

[spoiler]
General
Unique ID                                : 190930518933233696179670255843447439868 (0x8FA3E15FFFF3B2678CFF7E29503C81FC)
Complete name                            : K:\p2p up\PE2\Plànèt.3arth.II.Episodio.2.-.M0ntagne.(2016).BDRip.1O8Op.ITA.AC3.ENG.DTS.-.Sciencefun.mkv
Format                                   : Matroska
Format version                           : Version 4 / Version 2
File size                                : 5.70 GiB
Duration                                 : 48 min 28 s
Overall bit rate                         : 16.8 Mb/s
Encoded date                             : UTC 2017-03-25 08:44:52
Writing application                      : mkvmerge v9.5.0 ('Quiet Fire') 64bit
Writing library                          : libebml v1.3.4 + libmatroska v1.4.5 / Lavf57.25.100

Video
ID                                       : 1
Format                                   : AVC
Format/Info                              : Advanced Video Codec
Format profile                           : [email protected]
Format settings, CABAC                   : Yes
Format settings, ReFrames                : 4 frames
Codec ID                                 : V_MPEG4/ISO/AVC
Duration                                 : 48 min 27 s
Bit rate                                 : 15.1 Mb/s
Width                                    : 1 920 pixels
Height                                   : 1 080 pixels
Display aspect ratio                     : 16:9
Frame rate mode                          : Constant
Frame rate                               : 25.000 FPS
Color space                              : YUV
Chroma subsampling                       : 4:2:0
Bit depth                                : 8 bits
Scan type                                : Progressive
Bits/(Pixel*Frame)                       : 0.291
Stream size                              : 5.11 GiB (90%)
Writing library                          : x264 core 148 r2705 3f5ed56
Encoding settings                        : cabac=1 / ref=4 / deblock=1:-3:-3 / analyse=0x3:0x133 / me=umh / subme=10 / psy=1 / psy_rd=0.90:0.00 / mixed_ref=1 / me_range=48 / chroma_me=1 / trellis=2 / 8x8dct=1 / cqm=0 / deadzone=21,11 / fast_pskip=1 / chroma_qp_offset=-2 / threads=24 / lookahead_threads=4 / sliced_threads=0 / nr=0 / decimate=1 / interlaced=0 / bluray_compat=0 / constrained_intra=0 / bframes=8 / b_pyramid=2 / b_adapt=2 / b_bias=0 / direct=3 / weightb=1 / open_gop=0 / weightp=2 / keyint=250 / keyint_min=25 / scenecut=40 / intra_refresh=0 / rc=crf / mbtree=0 / crf=18.0 / qcomp=0.60 / qpmin=0 / qpmax=69 / qpstep=4 / ip_ratio=1.40 / pb_ratio=1.30 / aq=3:0.75
Default                                  : Yes
Forced                                   : No

Audio #1
ID                                       : 2
Format                                   : AC-3
Format/Info                              : Audio Coding 3
Mode extension                           : CM (complete main)
Format settings, Endianness              : Big
Codec ID                                 : A_AC3
Duration                                 : 48 min 28 s
Bit rate mode                            : Constant
Bit rate                                 : 256 kb/s
Channel(s)                               : 2 channels
Channel positions                        : Front: L R
Sampling rate                            : 48.0 kHz
Frame rate                               : 31.250 FPS (1536 spf)
Compression mode                         : Lossy
Delay relative to video                  : -400 ms
Stream size                              : 88.7 MiB (2%)
Title                                    : Sciencefun Mux
Language                                 : Italian
Default                                  : Yes
Forced                                   : No

Audio #2
ID                                       : 3
Format                                   : DTS
Format/Info                              : Digital Theater Systems
Mode                                     : 16
Format settings, Endianness              : Big
Codec ID                                 : A_DTS
Duration                                 : 48 min 27 s
Bit rate mode                            : Constant
Bit rate                                 : 1 509 kb/s
Channel(s)                               : 6 channels
Channel positions                        : Front: L C R, Side: L R, LFE
Sampling rate                            : 48.0 kHz
Frame rate                               : 93.750 FPS (512 spf)
Bit depth                                : 24 bits
Compression mode                         : Lossy
Stream size                              : 523 MiB (9%)
Language                                 : English
Default                                  : No
Forced                                   : No


[/spoiler]

[IMG]image[/IMG]

clicca sopra l'immagine per vederla in rapporto 1:1

[URL=http://www.imagebam.com/image/66a7b9540262393][IMG]image[/IMG][/URL] [URL=http://www.imagebam.com/image/b45982540262396][IMG]image[/IMG][/URL] [URL=http://www.imagebam.com/image/fc8b2d540262397][IMG]image[/IMG][/URL] [URL=http://www.imagebam.com/image/083012540262400][IMG]image[/IMG][/URL] [URL=http://www.imagebam.com/image/a09f44540262402][IMG]image[/IMG][/URL] [URL=http://www.imagebam.com/image/3f5cf3540262406][IMG]image[/IMG][/URL] [URL=http://www.imagebam.com/image/959445540262411][IMG]image[/IMG][/URL] 


[URL=http://i.imgur.com/ZkPRyXm.gifv][IMG]image[/IMG][/URL]

[SIZE=14][URL=http://archive.org/download/VlcRecord2017020312h03m54sPlanetEarthIIEpisode2Mountains2016BDRip1080pENGDTSSubItaEngSciencefun/vlc-record-2017-02-03-12h03m54s-Planet%20Earth%20II%20Episode%202_%20Mountains%20(2016)%20BDRip%201080p%20ENG%20DTS%20Sub%20Ita%20Eng%20-%20Sciencefun-.ts]Anteprima - Sample Video[/URL][/SIZE]

[IMG]image[/IMG][SIZE=6]
[b]Seed:
[color=red]Singolo Webseed 
[u]Illimitato[/u] :giggle:  [/SIZE]
[color=purple][u]fino a 100Mbit/s[/u][/color] 

[color=brown]Server: 1Gbps Upload <12h[/color][/b][color=brown]

[color=green]Seed in DHT[/color]
[IMG]image[/IMG][IMG]image[/IMG][IMG]image[/IMG][IMG]image[/IMG]

[color=orange]Mi Raccomando [u]rimanete in Seed[/u]!!![/color][/color][/color]

[IMG]image[/IMG]

[b]un :grazie: è sempre ben accetto[/b][/align]
Plànèt.3arth.II.Episodio.2.-.M0ntagne.(2016).BDRip.1O8Op.ITA.AC3.ENG.DTS.-.Sciencefun.mkv 6.125 GB
Gathering some info...

Register and log in Isohunt and see no captcha anymore!

4000 symbols left
Hash 98975e13638cc3e89fb63e12239f4298a22f1105

Related torrents for "Planet Earth S02e02 - Mountains (2016), [BDrip 1080p - H264 - Ita Ac3 Eng Dts] BBC [Isohunt.to]"